cancel
Showing results for 
Search instead for 
Did you mean: 

Graphics

Highlighted
Adept I
Adept I

Radeon ReLive badly feeds on YouTube at any bitrate !

Hello Radeon ReLive badly feeds on YouTube at any bitrate, the card 7970, when streaming with OBS is all normal. Record video to the file is excellent.

What is the problem with why she writes that the flow is too slow?

The problem is not on the Internet speed on the return and reception of 50-60 Mbps!

0 Kudos
2 Replies
Highlighted
Adept I
Adept I

Re: Radeon ReLive badly feeds on YouTube at any bitrate !

Снимок экрана (411).pngСнимок экрана (417).pngСнимок экрана (416).pngСнимок экрана (415).png

File parameters at the output of the video ReLive:

General

Complete name                  : E:\relive.mp4

Format                         : MPEG-4

Format profile                 : Base Media

Codec ID                       : isom (isom/iso2/avc1/mp41)

File size                      : 1.48 MiB

Duration                       : 2 s 967 ms

Overall bit rate               : 4 190 kb/s

Writing application            : Lavf57.71.100

Video

ID                             : 1

Format                         : AVC

Format/Info                    : Advanced Video Codec

Format profile                 : Main@L4.2

Format settings                : CABAC / 4 Ref Frames

Format settings, CABAC         : Yes

Format settings, ReFrames      : 4 frames

Codec ID                       : avc1

Codec ID/Info                  : Advanced Video Coding

Duration                       : 2 s 967 ms

Bit rate                       : 4 050 kb/s

Width                          : 1 920 pixels

Height                         : 1 080 pixels

Display aspect ratio           : 16:9

Frame rate mode                : Variable

Frame rate                     : 60.000 FPS

Minimum frame rate             : 59.796 FPS

Maximum frame rate             : 60.015 FPS

Standard                       : Component

Color space                    : YUV

Chroma subsampling             : 4:2:0

Bit depth                      : 8 bits

Scan type                      : Progressive

Bits/(Pixel*Frame)             : 0.033

Stream size                    : 1.43 MiB (97%)

Color range                    : Limited

Codec configuration box        : avcC

Complete name                  : E:\OBS.mp4

Format                         : MPEG-4

Format profile                 : Base Media

Codec ID                       : isom (isom/iso2/avc1/mp41)

File size                      : 8.49 MiB

Duration                       : 2 s 817 ms

Overall bit rate mode          : Variable

Overall bit rate               : 25.3 Mb/s

Writing application            : Lavf57.84.100

File parameters at the output of the video OBS:

Video

ID                             : 1

Format                         : AVC

Format/Info                    : Advanced Video Codec

Format profile                 : High@L4.2

Format settings                : CABAC / 4 Ref Frames

Format settings, CABAC         : Yes

Format settings, ReFrames      : 4 frames

Codec ID                       : avc1

Codec ID/Info                  : Advanced Video Coding

Duration                       : 2 s 817 ms

Bit rate                       : 25.0 Mb/s

Width                          : 1 920 pixels

Height                         : 1 080 pixels

Display aspect ratio           : 16:9

Frame rate mode                : Constant

Frame rate                     : 60.000 FPS

Standard                       : Component

Color space                    : YUV

Chroma subsampling             : 4:2:0

Bit depth                      : 8 bits

Scan type                      : Progressive

Bits/(Pixel*Frame)             : 0.201

Stream size                    : 8.40 MiB (99%)

Color range                    : Limited

Codec configuration box        : avcC

When recording there are no problems, only when streaming.

The picture jerks and turns into cubes, youtube swears at a too slow flow, and at high and low bitrates!

0 Kudos
Highlighted
Big Boss
Big Boss

Re: Radeon ReLive badly feeds on YouTube at any bitrate !

These forums are just User to User, just others like you. We can offer help with issues if we know a setting to tweak or something like that. If you need to report a bug or feature not working make sure to report it to AMD. The links to do that are in Radeon Settings, on the driver download and contact page.